免費論壇 繁體 | 簡體
Sclub交友聊天~加入聊天室當版主
分享
返回列表 发帖

[1080P] 蔡琴金色大厅演奏会.台版中字蓝光原盘.Bluray.1080i.DTS.18.39G


1.jpg
2014-6-23 14:08


香港首个采用过千万广播级高清拍攝器材攝录的影音产品,音色、影像皆优美绝伦


蔡琴国语专辑《金声演奏厅》由第五十六届柏林电影节最佳电影配乐银熊奖得主金培达先生及赵增熹先生监制,每首均是现场演唱、收音、录音。

用上全新概念,唱的不再是老歌,而是陪伴大家成长的流行曲、,首首情歌用她魅力声音演绎出来。


《金声演奏厅》是一隻新旧混合的唱片。旧的是整张专辑都是用全港只得一枝的无价宝,1946 年出产的古董「胆咪」收音,与蔡琴声音配合起来,效果出人意表,就像红酒一样越成熟越有味道。新的是高清录影,96kHz/24Bit 声音取样,不单单是纯 CD,而是 Audio + Visual 再加 Hifi 元素。这是蔡琴首次一 Take 过同步录音录影,对她来说感觉很新鲜,她说:「唱歌不在 Studio,又听到看得到,很矛盾。从前录歌不用化妆,只专心唱歌,不用顾样貌。但是现在就像演歌舞剧,我都很喜欢 Musical 感觉很新鲜。」而监制金培达先生则觉得她配合歌曲的动作很自然,手的摆动很优美。蔡琴形容录歌的地方是「最大的小厅,最小的大厅」,空间感很好,能够好好培养感情。



曲目:

01.天天天蓝
02.祝我幸福
03.用心良苦
04.其实你不懂我的心
05.为了爱梦一生
06.只有分离
07.吻别
08.一场游戏一场梦
09.假如我是真的
10.点亮霓虹灯
11.海上花


  1. Disc Title: Tsai Chin Golden Voice Concert Hall Series Blu-ray 1080i LPCM DTS-HD 5 1–TTG
  2. Disc Size: 19,748,118,556 bytes
  3. Protection: AACS
  4. BD-Java: No
  5. BDInfo: 0.5.6
  6. PLAYLIST REPORT:
  7. Name: 00001.MPLS
  8. Length: 0:42:42 (h:m:s)
  9. Size: 12,799,506,432 bytes
  10. Total Bitrate: 39.96 Mbps
  11. VIDEO:
  12. Codec Bitrate Description
  13. —– ——- ———–
  14. MPEG-4 AVC Video 22844 kbps 1080i / 29.970 fps / 16:9 / High Profile 4.1
  15. AUDIO:
  16. Codec Language Bitrate Description
  17. —– ——– ——- ———–
  18. LPCM Audio Chinese 4608 kbps 5.1 / 48 kHz / 4608 kbps / 16-bit
  19. DTS-HD Master Audio Chinese 8618 kbps 5.1-ES / 96 kHz / 8618 kbps / 24-bit (DTS Core: 5.1-ES / 48 kHz / 1509 kbps / 24-bit)
  20. LPCM Audio Chinese 1536 kbps 2.0 / 48 kHz / 1536 kbps / 16-bit
  21. SUBTITLES:
  22. Codec Language Bitrate Description
  23. —– ——– ——- ———–
  24. Presentation Graphics Chinese 24.791 kbps
  25. Presentation Graphics Chinese 22.699 kbps
  26. FILES:
  27. Name Time In Length Size Total Bitrate
  28. —- ——- —— —- ————-
  29. 00003.M2TS 0:00:00.000 0:01:25.418 426,584,064 39,952
  30. 00004.M2TS 0:01:25.418 0:04:19.058 1,294,012,416 39,960
  31. 00005.M2TS 0:05:44.477 0:04:06.946 1,222,748,160 39,612
  32. 00006.M2TS 0:09:51.424 0:03:26.306 1,034,428,416 40,112
  33. 00007.M2TS 0:13:17.730 0:04:11.618 1,260,017,664 40,061
  34. 00008.M2TS 0:17:29.348 0:03:44.357 1,125,371,904 40,128
  35. 00009.M2TS 0:21:13.705 0:04:08.748 1,242,058,752 39,946
  36. 00010.M2TS 0:25:22.454 0:04:12.986 1,284,440,064 40,617
  37. 00011.M2TS 0:29:35.440 0:03:36.549 1,084,846,080 40,077
  38. 00012.M2TS 0:33:11.989 0:04:18.825 1,302,534,144 40,260
  39. 00013.M2TS 0:37:30.815 0:05:11.778 1,522,464,768 39,065
复制代码


购买主题 已购买人数:55  记录 本主题需向作者支付 2 银子 才能浏览
分享到: QQ空间QQ空间 腾讯微博腾讯微博 腾讯朋友腾讯朋友

支持楼主支持楼主支持楼主支持楼主支持楼主支持楼主支持楼主支持楼主支持楼主支持楼主支持楼主

TOP

我喜欢大的,哈哈

TOP

楼主,我艹尼玛, 这分段的,劳资以为演唱会,还我银子!!!!!!!!!!!!!!!!!!

TOP

:):)

TOP

thanks

TOP

支持支持。很好支持

TOP

看看.........

TOP

支持支持。很好支持
演唱会

TOP

谢谢分享

TOP

谢谢楼主!!1

TOP

支持啊··太喜欢卡

TOP

回复 1# yinyue

TOP

回复 1# yinyue


   
我喜欢
我喜欢
喜欢

TOP

聽她悠美的歌聲.是依幒享受

TOP

返回列表